BT联盟

 找回密码
 立即注册
搜索
热搜: bdrip 1080p mp4
查看: 133|回复: 0

[BT下载]死亡笔记 Death.Note.2006.1080p.BluRay.x264.DTS-FGT 9.07GB

[复制链接]

14万

主题

14万

帖子

43万

积分

论坛元老

Rank: 8Rank: 8

积分
433492
发表于 2017-4-20 17:58:53 | 显示全部楼层 |阅读模式

◎译  名 死亡笔记/死亡笔记前篇
◎片  名 デスノート
◎年  代 2006
◎国  家 日本
◎类  别 冒险/犯罪/剧情/悬疑
◎语  言 日语
◎上映日期 2006-06-17(日本)
◎豆瓣评分 7.7/10 from 85,185 users
◎豆瓣链接 https://movie.douban.com/subject/1768351/
◎BT之家整理 http://www.btbtt.co
◎片  长 126 分钟
◎导  演 金子修介 Shusuke Kaneko
◎主  演 藤原龙也 Tatsuya Fujiwara
      松山研一 Ken'ichi Matsuyama
      香椎由宇 Yu Kashii
      濑户朝香 Asaka Seto
      鹿贺丈史 Takeshi Kaga
      满岛光 Hikari Mitsushima
◎简  介
  死神硫克把一本“死亡笔记”遗落人间,被天才少年夜神月(藤原龙也 饰)拾到,月利用“死亡笔记”制裁了许多法律的正义无法制裁的犯人,他自称以“KILLER =基拉”为名的“救世主”,利用自己的双手制裁犯罪者,构筑理想中的世界;一连串杀人事件引起了ICPO(国际刑警组织)的注意,派出了天才侦探L(松山健一 饰)进行调查,步步逼近,和月斗智斗勇……
  两个自认代表正义的天才的对决。
Video
ID                                       : 1
Format                                   : AVC
Format/Info                              : Advanced Video Codec
Format profile                           : High@L4.1
Format settings, CABAC                   : Yes
Format settings, ReFrames                : 4 frames
Codec ID                                 : V_MPEG4/ISO/AVC
Duration                                 : 2h 7mn
Bit rate                                 : 8 116 Kbps
Width                                    : 1 920 pixels
Height                                   : 1 080 pixels
Display aspect ratio                     : 16:9
Frame rate mode                          : Constant
Frame rate                               : 23.976 (24000/1001) fps
Color space                              : YUV
Chroma subsampling                       : 4:2:0
Bit depth                                : 8 bits
Scan type                                : Progressive
Bits/(Pixel*Frame)                       : 0.163
Stream size                              : 7.20 GiB (79%)
Title                                    : Death.Note.2006.1080p.BluRay.x264.DTS-FGT
Language                                 : Japanese
Default                                  : Yes
Forced                                   : Yes
Audio #1
ID                                       : 2
Format                                   : AC-3
Format/Info                              : Audio Coding 3
Mode extension                           : CM (complete main)
Format settings, Endianness              : Big
Codec ID                                 : A_AC3
Duration                                 : 2h 7mn
Bit rate mode                            : Constant
Bit rate                                 : 384 Kbps
Channel(s)                               : 2 channels
Channel positions                        : Front: L R
Sampling rate                            : 48.0 KHz
Frame rate                               : 31.250 fps (1536 spf)
Compression mode                         : Lossy
Stream size                              : 349 MiB (4%)
Title                                    : Death.Note.2006.1080p.BluRay.x264.DTS-FGT
Language                                 : English
Default                                  : Yes
Forced                                   : No
Audio #2
ID                                       : 3
Format                                   : DTS
Format/Info                              : Digital Theater Systems
Mode                                     : 16
Format settings, Endianness              : Big
Codec ID                                 : A_DTS
Duration                                 : 2h 7mn
Bit rate mode                            : Constant
Bit rate                                 : 1 509 Kbps
Channel(s)                               : 6 channels
Channel positions                        : Front: L C R, Side: L R, LFE
Sampling rate                            : 48.0 KHz
Frame rate                               : 93.750 fps (512 spf)
Bit depth                                : 16 bits
Compression mode                         : Lossy
Delay relative to video                  : 53ms
Stream size                              : 1.34 GiB (15%)
Title                                    : Death.Note.2006.1080p.BluRay.x264.DTS-FGT
Language                                 : Japanese
Default                                  : No
Forced                                   : No
Text
ID                                       : 4
Format                                   : UTF-8
Codec ID                                 : S_TEXT/UTF8
Codec ID/Info                            : UTF-8 Plain Text
Language                                 : English
Default                                  : Yes
Forced                                   : No















Death.Note.2006.1080p.BluRay.x264.DTS-FGT[btbtt.co].torrent
回复

使用道具 举报

您需要登录后才可以回帖 登录 | 立即注册

本版积分规则

Archiver|手机版|小黑屋|www.101bt.net  

GMT+8, 2017-10-22 16:00 , Processed in 0.100817 second(s), 22 queries .

Powered by Discuz! X3.2

© 2001-2013 Comsenz Inc.

快速回复 返回顶部 返回列表