BT联盟

 找回密码
 立即注册
搜索
热搜: bdrip 1080p mp4
查看: 280|回复: 0

[BT下载]两女一男 2.Girls.and.a.Guy.1997.1080p.Bluray.X264-DIMENSION 7.95GB

[复制链接]

14万

主题

14万

帖子

43万

积分

论坛元老

Rank: 8Rank: 8

积分
433492
发表于 2017-4-20 17:58:52 | 显示全部楼层 |阅读模式

◎译  名 两女一男
◎片  名 Two Girls and a Guy
◎年  代 1997
◎国  家 美国
◎类  别 喜剧/剧情
◎语  言 英语
◎上映日期 1997-09-09(多伦多电影节)
◎IMDb评分  5.6/10 from 6,069 users
◎IMDb链接  http://www.imdb.com/title/tt0124179/
◎豆瓣评分 7.0/10 from 188 users
◎豆瓣链接 https://movie.douban.com/subject/2123066/
◎BT之家整理 http://www.btbtt.co
◎片  长 84 分钟
◎导  演 詹姆斯·托贝克 James Toback
◎主  演 海瑟·格拉汉姆 Heather Graham
      娜塔莎·格雷格逊·瓦格纳 Natasha Gregson Wagner
      小罗伯特·唐尼 Robert Downey Jr.
◎简  介
  Thanks to his two girlfriends Blake is about to learn a new sexual position. Honesty.
Video
ID                                       : 1
Format                                   : AVC
Format/Info                              : Advanced Video Codec
Format profile                           : High@L4.1
Format settings, CABAC                   : Yes
Format settings, ReFrames                : 4 frames
Codec ID                                 : V_MPEG4/ISO/AVC
Duration                                 : 1h 25mn
Bit rate                                 : 11.8 Mbps
Width                                    : 1 920 pixels
Height                                   : 1 040 pixels
Display aspect ratio                     : 1.85:1
Frame rate mode                          : Constant
Frame rate                               : 23.976 (24000/1001) fps
Color space                              : YUV
Chroma subsampling                       : 4:2:0
Bit depth                                : 8 bits
Scan type                                : Progressive
Bits/(Pixel*Frame)                       : 0.246
Stream size                              : 6.88 GiB (87%)
Writing library                          : x264 core 78 r1318 fe83a90
Encoding settings                        : cabac=1 / ref=4 / deblock=1:-1:-1 / analyse=0x3:0x113 / me=umh / subme=8 / psy=1 / psy_rd=1.0:0.0 / mixed_ref=1 / me_range=16 / chroma_me=1 / trellis=1 / 8x8dct=1 / cqm=0 / deadzone=21,11 / chroma_qp_offset=-2 / threads=6 / nr=0 / decimate=1 / mbaff=0 / constrained_intra=0 / bframes=3 / b_pyramid=0 / b_adapt=1 / b_bias=0 / direct=3 / wpredb=1 / keyint=250 / keyint_min=25 / scenecut=40 / rc_lookahead=40 / rc=2pass / mbtree=1 / bitrate=11769 / ratetol=1.0 / qcomp=0.60 / qpmin=10 / qpmax=51 / qpstep=4 / cplxblur=20.0 / qblur=0.5 / ip_ratio=1.40 / aq=1:1.10
Language                                 : English
Default                                  : Yes
Forced                                   : No
Audio
ID                                       : 2
Format                                   : DTS
Format/Info                              : Digital Theater Systems
Mode                                     : 16
Format settings, Endianness              : Big
Codec ID                                 : A_DTS
Duration                                 : 1h 25mn
Bit rate mode                            : Constant
Bit rate                                 : 1 509 Kbps
Channel(s)                               : 6 channels
Channel positions                        : Front: L C R, Side: L R, LFE
Sampling rate                            : 48.0 KHz
Frame rate                               : 93.750 fps (512 spf)
Bit depth                                : 24 bits
Compression mode                         : Lossy
Stream size                              : 925 MiB (11%)
Language                                 : English
Default                                  : Yes
Forced                                   : No
Text
ID                                       : 3
Format                                   : UTF-8
Codec ID                                 : S_TEXT/UTF8
Codec ID/Info                            : UTF-8 Plain Text
Language                                 : English
Default                                  : Yes
Forced                                   : No















2.Girls.and.a.Guy.1997.1080p.Bluray.X264-DIMENSION[btbtt.co].torrent
回复

使用道具 举报

您需要登录后才可以回帖 登录 | 立即注册

本版积分规则

Archiver|手机版|小黑屋|www.101bt.net  

GMT+8, 2017-12-12 16:12 , Processed in 0.075679 second(s), 22 queries .

Powered by Discuz! X3.2

© 2001-2013 Comsenz Inc.

快速回复 返回顶部 返回列表